Livecap 2.0

 
Начать новую тему   Ответить на тему    Список форумов TV Server // LiveCapture
Предыдущая тема :: Следующая тема  
Автор Сообщение
Andreiii



Зарегистрирован: 16.02.2008
Сообщения: 175
Откуда: Россия

СообщениеДобавлено: Thu Aug 07, 2008 3:51 am    Заголовок сообщения: Livecap 2.0 Ответить с цитатой
Пишет Гарант, первоуральск.
Нам Сергей отправлял весной версию 2.0, но она не решила проблему. При открытии в Vdub программа ругается на многочисленные ошибки в потоке. Вы уж пофиксите, пожалуйста! Как можно подписаться на обновления DigiTV & Livecap? А то глюки-недоработки различные покоя не дают.
Вернуться к началу
Посмотреть профиль Отправить личное сообщение Посетить сайт автора ICQ Number
Admin_A
Site Admin


Зарегистрирован: 02.08.2006
Сообщения: 1405
Откуда: Екатеринбург

СообщениеДобавлено: Fri Aug 08, 2008 3:37 am    Заголовок сообщения: Ответить с цитатой
Цитата:
Пишет Гарант, первоуральск.
Нам Сергей отправлял весной версию 2.0, но она не решила проблему. При открытии в Vdub программа ругается на многочисленные ошибки в потоке.

Проблемы из-за того, что вы используете старую версию. С тех пор ядро MPEG'а было полностью заменено. Актуальная версия LiveCapture v2.5.

Отправте запрос на почту, вам вышлют обновление.
Вернуться к началу
Посмотреть профиль Отправить личное сообщение Посетить сайт автора ICQ Number
Гость






СообщениеДобавлено: Sat Aug 09, 2008 4:46 am    Заголовок сообщения: Ответить с цитатой
Admin_A писал(а):

Проблемы из-за того, что вы используете старую версию. С тех пор ядро MPEG'а было полностью заменено. Актуальная версия LiveCapture v2.5.

Отправте запрос на почту, вам вышлют обновление.


Ок. кстати, файл был DV AVI
Вернуться к началу
massat1



Зарегистрирован: 30.11.2008
Сообщения: 3

СообщениеДобавлено: Thu Feb 12, 2009 2:01 pm    Заголовок сообщения: Ответить с цитатой
Здравствуйте! Вместо двух програм LiveCapture и DigiVHS можно сделать одну со всеми функциями обоих программ. Эта программа получилась бы универсальной да и удобнее.
Вернуться к началу
Посмотреть профиль Отправить личное сообщение Отправить e-mail
Admin_A
Site Admin


Зарегистрирован: 02.08.2006
Сообщения: 1405
Откуда: Екатеринбург

СообщениеДобавлено: Fri May 29, 2009 1:51 am    Заголовок сообщения: Ответить с цитатой
У программ различное предназначение, разные функции, разные форматы и разные устройства ввода. Не думаю что есть смысл их объединять.
Вернуться к началу
Посмотреть профиль Отправить личное сообщение Посетить сайт автора ICQ Number
Andreiii



Зарегистрирован: 16.02.2008
Сообщения: 175
Откуда: Россия

СообщениеДобавлено: Tue Aug 18, 2009 7:58 pm    Заголовок сообщения: Ответить с цитатой
Admin_A писал(а):

Проблемы из-за того, что вы используете старую версию. С тех пор ядро MPEG'а было полностью заменено. Актуальная версия LiveCapture v2.5.


В livecap 2.5 та же самая проблема. Я вам отправлял email где-то с месяц назад.

При открытии в virtual dub не определяется звук (некорректный interleaving ?)

К тому же, MPEG я не использую. Только DV AVI.
Вернуться к началу
Посмотреть профиль Отправить личное сообщение Посетить сайт автора ICQ Number
Andreiii



Зарегистрирован: 16.02.2008
Сообщения: 175
Откуда: Россия

СообщениеДобавлено: Fri Aug 28, 2009 7:28 pm    Заголовок сообщения: Ответить с цитатой
Andreiii писал(а):


В livecap 2.5 та же самая проблема. Я вам отправлял email где-то с месяц назад.

При открытии в virtual dub не определяется звук (некорректный interleaving ?)

К тому же, MPEG я не использую. Только DV AVI.


Трудно ответить?
Вернуться к началу
Посмотреть профиль Отправить личное сообщение Посетить сайт автора ICQ Number
Admin_A
Site Admin


Зарегистрирован: 02.08.2006
Сообщения: 1405
Откуда: Екатеринбург

СообщениеДобавлено: Fri Sep 04, 2009 7:07 pm    Заголовок сообщения: Ответить с цитатой
Насколько помню там используется DV Type 1 AVI. Тот же самый кодек работает и в DigiTV. Проблем с ним быть не должно, но звук там интегрированный, может virtual dub его не поддерживает? Вы пробовали открывать Primier'ом?
Вернуться к началу
Посмотреть профиль Отправить личное сообщение Посетить сайт автора ICQ Number
Andreiii



Зарегистрирован: 16.02.2008
Сообщения: 175
Откуда: Россия

СообщениеДобавлено: Fri Sep 04, 2009 7:23 pm    Заголовок сообщения: Ответить с цитатой
Admin_A писал(а):
Насколько помню там используется DV Type 1 AVI. Тот же самый кодек работает и в DigiTV. Проблем с ним быть не должно, но звук там интегрированный, может virtual dub его не поддерживает? Вы пробовали открывать Primier'ом?


vdubmod открывает нормально файлы, захваченные премьером. Тут что-то с самим файлом не то.

Я записал Livecap'ом файл 2 часа 58 минут. Вот что пишет Mediainfo:

...
Format profile : OpenDML
File size : 36.0 GiB
Duration : 55h 54mn
Overall bit rate : 1 536 Kbps
Recorded date : 2065-25-45 46:26:25

Video
Format : Digital Video
Duration : 2h 58mn
Bit rate : 28.8 Mbps
....
Stream size : 36.0 GiB (100%)

Audio
Format : PCM
Duration : 55h 54mn
Bit rate : 1 536 Kbps
Channel(s) : 2 channels
Sampling rate : 48.0 KHz
Resolution : 16 bits
Interleave, duration : 40 ms (1.00 video frame)

Т.е. видно, что длина аудио не совпадает.
А вот вывод файла с премьера:

....
File size : 121 MiB
Duration : 35s 240ms
Overall bit rate : 28.9 Mbps
Writing application : Matrox MQSink Filter . Format: 6. Build: 2.0.0.269

Video
Format : Digital Video
Codec ID : dvsd
Codec ID/Hint : Sony
Duration : 35s 240ms
Bit rate : 28.8 Mbps
....
Bits/(Pixel*Frame) : 2.778
Stream size : 121 MiB (100%)
Вернуться к началу
Посмотреть профиль Отправить личное сообщение Посетить сайт автора ICQ Number
Admin_A
Site Admin


Зарегистрирован: 02.08.2006
Сообщения: 1405
Откуда: Екатеринбург

СообщениеДобавлено: Thu Sep 10, 2009 7:51 pm    Заголовок сообщения: Ответить с цитатой
А сам файл Вы нам прислать сможете?
Вернуться к началу
Посмотреть профиль Отправить личное сообщение Посетить сайт автора ICQ Number
Andreiii



Зарегистрирован: 16.02.2008
Сообщения: 175
Откуда: Россия

СообщениеДобавлено: Thu Sep 10, 2009 9:46 pm    Заголовок сообщения: Ответить с цитатой
Admin_A писал(а):
А сам файл Вы нам прислать сможете?


36 гигов?) Сори гайз) Уже переконвертировал и удалил.
Кстати, VirtualDub-mpeg2 его нормально открыл. Но все равно там что-то не то со звуком...
Вернуться к началу
Посмотреть профиль Отправить личное сообщение Посетить сайт автора ICQ Number
fanat741



Зарегистрирован: 11.04.2018
Сообщения: 2

СообщениеДобавлено: Wed Apr 11, 2018 2:32 am    Заголовок сообщения: Ответить с цитатой
в сети уже все есть
_________________
кардинг форум
Вернуться к началу
Посмотреть профиль Отправить личное сообщение Посетить сайт автора
Начать новую тему   Ответить на тему    Список форумов TV Server // LiveCapture Часовой пояс: GMT + 6
Страница 1 из 1

 
Перейти:  
Вы можете начинать темы
Вы можете отвечать на сообщения
Вы не можете редактировать свои сообщения
Вы не можете удалять свои сообщения
Вы не можете голосовать в опросах


Copyright © Samodurov Denis, Skuridin Alexey 2004-2007